Tvos infuse dvd wrong aspect ratio?

Hello,
Problem is with wrong aspect ratio in DVD copy files

First image is from panasonic uhd

second is from infuse and iso copy

I have few other disc with the same problem?

General
Complete name                            : /home/pro/VTS_01_1.VOB
Format                                   : MPEG-PS
File size                                : 1 024 MiB
Duration                                 : 28 min 37 s
Overall bit rate                         : 5 001 kb/s

Video
ID                                       : 224 (0xE0)
Format                                   : MPEG Video
Format version                           : Version 2
Format profile                           : Main@Main
Format settings                          : CustomMatrix / BVOP
Format settings, BVOP                    : Yes
Format settings, Matrix                  : Custom
Format settings, GOP                     : M=3, N=15
Format settings, picture structure       : Frame
Duration                                 : 28 min 37 s
Bit rate mode                            : Constant
Bit rate                                 : 4 000 kb/s
Width                                    : 720 pixels
Height                                   : 576 pixels
Display aspect ratio                     : 4:3
Frame rate                               : 25.000 FPS
Standard                                 : PAL
Color space                              : YUV
Chroma subsampling                       : 4:2:0
Bit depth                                : 8 bits
Scan type                                : Interlaced
Scan order                               : Top Field First
Compression mode                         : Lossy
Bits/(Pixel*Frame)                       : 0.386
Stream size                              : 820 MiB (80%)

Audio #1
ID                                       : 189 (0xBD)-128 (0x80)
Format                                   : AC-3
Format/Info                              : Audio Coding 3
Commercial name                          : Dolby Digital
Muxing mode                              : DVD-Video
Duration                                 : 28 min 37 s
Bit rate mode                            : Constant
Bit rate                                 : 448 kb/s
Channel(s)                               : 6 channels
Channel layout                           : L R C LFE Ls Rs
Sampling rate                            : 48.0 kHz
Frame rate                               : 31.250 FPS (1536 SPF)
Compression mode                         : Lossy
Delay relative to video                  : -80 ms
Stream size                              : 91.7 MiB (9%)
Service kind                             : Complete Main

Audio #2
ID                                       : 189 (0xBD)-129 (0x81)
Format                                   : AC-3
Format/Info                              : Audio Coding 3
Commercial name                          : Dolby Digital
Muxing mode                              : DVD-Video
Duration                                 : 28 min 37 s
Bit rate mode                            : Constant
Bit rate                                 : 448 kb/s
Channel(s)                               : 6 channels
Channel layout                           : L R C LFE Ls Rs
Sampling rate                            : 48.0 kHz
Frame rate                               : 31.250 FPS (1536 SPF)
Compression mode                         : Lossy
Delay relative to video                  : -80 ms
Stream size                              : 91.7 MiB (9%)
Service kind                             : Complete Main

Text
ID                                       : 189 (0xBD)-32 (0x20)
Format                                   : RLE
Format/Info                              : Run-length encoding
Muxing mode                              : DVD-Video

Menu

I uploaded full iso via https://www.dropbox.com/request/L5gFAOUXysVqL8dwZjgD
Orca 1977 QDVD VISION.iso

:smiley:

1 Like

@james
Could you look on this problem? thank you.

This appears to be a 4:3 video with embedded black bars.

You can get it to appear a bit better by setting the Zoom Mode option in Infuse to ‘Crop’.

No this is not 4:3.
This movie looks like here on my panasonic uhd player and on linux mpv player


Another movie VLC has also the same problem with property aspect ration

It may be an encoding issue then.

The ISO file includes a display aspect ratio tag of 4:3 (though this does not match the resolution). This tag may not be present when playing the actual disc, which is why you are seeing a difference here.

However, you can get this aspect ratio to match what you are seeing in other playback methods by setting the Zoom Mode in Infuse to ‘Stretch’.

Yes I know MediaInfo report 4:3 but I think information about aspect ratio is written in another place…

Something like blu-ray files lang/sub/chapters are not written in m2ts file.

Maybe I’m wrong i don’t know… but yes stretch this is way to fix this in manual way