The .mov video file is not playing in infuse

Apple TV 4K 2022
infuse 7.7.1
Code: TN5XM
The video slows down and stops.

Mediainfo
General
Complete name : D:\Imagine Dragons - Bones.mov
Format : MPEG-4
Format profile : QuickTime
Codec ID : qt 2005.03 (qt )
File size : 15.6 GiB
Duration : 2 min 44 s
Overall bit rate mode : Variable
Overall bit rate : 810 Mb/s
Frame rate : 23.976 FPS
Encoded date : 2022-03-29 00:32:23 UTC
Tagged date : 2022-03-29 00:53:06 UTC
Writing library : Apple QuickTime
TIM : 00:51:01:03
TSC : 24000
TSZ : 1001

Video
ID : 1
Format : ProRes
Format version : Version 0
Format profile : 422 HQ
Codec ID : apch
Duration : 2 min 44 s
Bit rate mode : Variable
Bit rate : 809 Mb/s
Width : 4 096 pixels
Height : 2 304 pixels
Display aspect ratio : 16:9
Frame rate mode : Constant
Frame rate : 23.976 (24000/1001) FPS
Color space : YUV
Chroma subsampling : 4:2:2
Scan type : Progressive
Bits/(Pixel*Frame) : 3.575
Stream size : 15.5 GiB (100%)
Writing library : Apple
Language : English
Encoded date : 2022-03-29 00:32:23 UTC
Tagged date : 2022-03-29 00:32:23 UTC
Color primaries : BT.709
Transfer characteristics : BT.709
Matrix coefficients : BT.709
Menus : 0

Audio
ID : 2
Format : PCM
Format settings : Little / Signed
Codec ID : sowt
Duration : 2 min 44 s
Bit rate mode : Constant
Bit rate : 1 536 kb/s
Channel(s) : 2 channels
Channel layout : L R
Sampling rate : 48.0 kHz
Bit depth : 16 bits
Stream size : 30.2 MiB (0%)
Language : English
Encoded date : 2022-03-29 00:32:23 UTC
Tagged date : 2022-03-29 00:32:23 UTC
Menus : 0

Other
ID : 3
Type : Time code
Format : QuickTime TC
Duration : 2 min 44 s
Frame rate : 23.976 (24000/1001) FPS
Time code of first frame : 00:51:01:03
Time code of last frame : 00:53:45:22
Time code, stripped : Yes
Language : English
Encoded date : 2022-03-29 00:32:23 UTC
Tagged date : 2022-03-29 00:32:23 UTC

3 posts were merged into an existing topic: Improved support for ProRes