Playback of previously working MKV files not working in Infuse v2.4-474

Playback of previously working MKV files seems to be broken in the newest release. Files start to play, but crash and quit back to the menu. When you try and play the file again, they start from the beginning without the option to resume and crash in the same places every time.

Is there a way to revert to the previous infuse version? Or fix this?

 

Media Info dump...

 

General

Unique ID                                : 206547297434585735026051231518940614165 (0x9B639000673907A89C45B86D2E4A4E15)

Complete name                            : /LEGO Batman The Movie - DC Superheroes Unite (2013)/LEGO Batman The Movie - DC Superheroes Unite (2013).mkv

Format                                   : Matroska

Format version                           : Version 4 / Version 2

File size                                : 3.00 GiB

Duration                                 : 1h 10mn

Overall bit rate                         : 6 068 Kbps

Encoded date                             : UTC 2010-02-22 21:41:31

Writing application                      : mkvmerge v5.9.0 ('On The Loose') built on Dec  9 2012 15:37:01

Writing library                          : libebml v1.3.0 + libmatroska v1.4.0

 

Video

ID                                       : 1

Format                                   : AVC

Format/Info                              : Advanced Video Codec

Format profile                           : High@L4.1

Format settings, CABAC                   : Yes

Format settings, ReFrames                : 8 frames

Codec ID                                 : V_MPEG4/ISO/AVC

Duration                                 : 1h 10mn

Bit rate                                 : 4 560 Kbps

Width                                    : 1 280 pixels

Height                                   : 720 pixels

Display aspect ratio                     : 16:9

Frame rate                               : 23.976 fps

Color space                              : YUV

Chroma subsampling                       : 4:2:0

Bit depth                                : 8 bits

Scan type                                : Progressive

Bits/(Pixel*Frame)                       : 0.206

Stream size                              : 2.19 GiB (73%)

Title                                    : LEG Batman The Movie DC Superheroes Unite 2013

Writing library                          : x264 core 125 r2208 d9d2288

Encoding settings                        : cabac=1 / ref=8 / deblock=1:-3:-3 / analyse=0x3:0x113 / me=umh / subme=10 / psy=1 / psy_rd=1.00:0.05 / mixed_ref=1 / me_range=32 / chroma_me=1 / trellis=2 / 8x8dct=1 / cqm=0 / deadzone=21,11 / fast_pskip=0 / chroma_qp_offset=-2 / threads=8 / lookahead_threads=1 / sliced_threads=0 / nr=0 / decimate=1 / interlaced=0 / bluray_compat=0 / constrained_intra=0 / bframes=4 / b_pyramid=2 / b_adapt=2 / b_bias=0 / direct=3 / weightb=1 / open_gop=0 / weightp=2 / keyint=250 / keyint_min=23 / scenecut=40 / intra_refresh=0 / rc=2pass / mbtree=0 / bitrate=4560 / ratetol=1.0 / qcomp=0.70 / qpmin=0 / qpmax=69 / qpstep=4 / cplxblur=20.0 / qblur=0.5 / ip_ratio=1.40 / pb_ratio=1.30 / aq=2:1.00

Language                                 : English

Default                                  : Yes

Forced                                   : No

 

Audio

ID                                       : 2

Format                                   : DTS

Format/Info                              : Digital Theater Systems

Codec ID                                 : A_DTS

Duration                                 : 1h 10mn

Bit rate mode                            : Constant

Bit rate                                 : 1 510 Kbps

Channel(s)                               : 6 channels

Channel positions                        : Front: L C R, Side: L R, LFE

Sampling rate                            : 48.0 KHz

Bit depth                                : 24 bits

Compression mode                         : Lossy

Stream size                              : 764 MiB (25%)

Title                                    : English DTS-HDMA core 5.1 1509Kbps

Language                                 : English

Default                                  : Yes

Forced                                   : No

 

I have this same issue. Pretty annoying. Any suggestions would be much appreciated.