Playback issues with Dolby Vision on macOS

I’m having a lot of playback issues on macOS. I’m running macOS (14.1.1) with Infuse 7.6.2 (7.6.4599) on a MacBook Pro 14" (2021). All of these issues are only affecting playback of 4K Dolby Vision content. I have tested this on files with these Dolby Vision formats:

HDR format: Dolby Vision, Version 1.0, dvhe.05.06, BL+RPU
HDR format: Dolby Vision, Version 1.0, dvhe.08.06, BL+RPU, Blu-ray compatible / SMPTE ST 2086, HDR10 compatible / SMPTE ST 2086, HDR10 compatible

Playback issues I’ve discovered:

  1. Some DV files have terrible stuttering (related to HDR Playback Issues)
  2. When I start playing a file or when I skip to a different part, the audio starts playing and the video takes 2-5 seconds to resume. Sometimes it even gets de-synced from the audio and I have to pause and then resume to get it synced (related to Delay after skipping/scrubbing)
  3. Resuming playback often causes the video to start playing ahead of the audio and then jump back after a split second to get back in sync
  4. During playback clicking on the cog wheel to bring up the audio and subtitle menu causes the video to pause and then resume after a split second
  5. Pausing the video sometimes immediately resumes it and the playback continues
  6. Occasionally, at a random point during the playback, the video jumps 3-5 seconds forward and gets de-synced with the audio (which continues to play) then after the audio reaches the point where the video jumped to (those 3-5 seconds ago) the video jumps back to that point and syncs with the audio replaying that portion of the video

The files are being streamed from a Jellyfin server on my local network. I’ve tried changing streaming cache to “memory only” and these issues still persist. Both iOS (17.1.1) with Infuse 7.6.2 (4599) and iPadOS (17.1.1) with Infuse 7.6.2 (4599) play the same files instantly after scrubbing and resuming with none of these issues during playback. I’m an Infuse Pro subscriber.

4 Likes

I got the exact same problems… I stream from Plex

I’ve since switched to a Plex server and the issue persists with Infuse 7.6.4 (7.6.4633).

An interesting discovery, I just ran into a TV show episode with DV that plays without any issues:

General
Unique ID                                : 220698741898035846759247148509690547379 (0xA60908150983D86C14736AFFA81B4CB3)
Complete name                            : Percy Jackson and the Olympians (2023) - S01E01 - I Accidentally Vaporize My Pre-Algebra Teacher [DSNP WEBDL-2160p][DV HDR10][EAC3 Atmos 5.1][h265]-FLUX.mkv
Format                                   : Matroska
Format version                           : Version 4
File size                                : 3.57 GiB
Duration                                 : 37 min 21 s
Overall bit rate                         : 13.7 Mb/s
Frame rate                               : 24.000 FPS
Writing application                      : mkvmerge v80.0 ('Roundabout') 64-bit
Writing library                          : libebml v1.4.4 + libmatroska v1.7.1

Video
ID                                       : 1
Format                                   : HEVC
Format/Info                              : High Efficiency Video Coding
Format profile                           : Main 10@L5@High
HDR format                               : Dolby Vision, Version 1.0, dvhe.08.06, BL+RPU, HDR10 compatible / SMPTE ST 2086, HDR10 compatible
Codec ID                                 : V_MPEGH/ISO/HEVC
Duration                                 : 37 min 21 s
Bit rate                                 : 12.9 Mb/s
Width                                    : 3 840 pixels
Height                                   : 2 160 pixels
Display aspect ratio                     : 16:9
Frame rate mode                          : Constant
Frame rate                               : 24.000 FPS
Color space                              : YUV
Chroma subsampling                       : 4:2:0
Bit depth                                : 10 bits
Bits/(Pixel*Frame)                       : 0.065
Stream size                              : 3.37 GiB (94%)
Language                                 : English
Default                                  : Yes
Forced                                   : No
Color range                              : Limited
Color primaries                          : BT.2020
Transfer characteristics                 : PQ
Matrix coefficients                      : BT.2020 non-constant
Mastering display color primaries        : BT.2020
Mastering display luminance              : min: 0.0010 cd/m2, max: 1000 cd/m2

Audio
ID                                       : 2
Format                                   : E-AC-3 JOC
Format/Info                              : Enhanced AC-3 with Joint Object Coding
Commercial name                          : Dolby Digital Plus with Dolby Atmos
Format settings                          : Dolby Surround EX
Codec ID                                 : A_EAC3
Duration                                 : 37 min 21 s
Bit rate mode                            : Constant
Bit rate                                 : 768 kb/s
Channel(s)                               : 6 channels
Channel layout                           : L R C LFE Ls Rs
Sampling rate                            : 48.0 kHz
Frame rate                               : 31.250 FPS (1536 SPF)
Compression mode                         : Lossy
Stream size                              : 205 MiB (6%)
Language                                 : English
Service kind                             : Complete Main
Default                                  : Yes
Forced                                   : No
Complexity index                         : 16
Number of dynamic objects                : 15
Bed channel count                        : 1 channel
Bed channel configuration                : LFE

On the other hand this movie has the playback issues despite also being DV profile 8:

General
Unique ID                                : 273371317311299726390549942224402758705 (0xCDA9668D5ED5019509663C88939BBC31)
Complete name                            : Dune (2021) {imdb-tt1160419} [WEBRip-2160p][DV HDR10][EAC3 Atmos 5.1][x265]-HONE.mkv
Format                                   : Matroska
Format version                           : Version 4
File size                                : 18.1 GiB
Duration                                 : 2 h 35 min
Overall bit rate                         : 16.6 Mb/s
Frame rate                               : 23.976 FPS
Movie name                               : Dune (2021) 
Encoded date                             : 2021-10-22 17:12:42 UTC
Writing application                      : mkvmerge v62.0.0 ('Apollo') 64-bit
Writing library                          : libebml v1.4.2 + libmatroska v1.6.4 / Lavf58.76.100
IMDB                                     : tt1160419
TMDB                                     : movie/438631

Video
ID                                       : 1
Format                                   : HEVC
Format/Info                              : High Efficiency Video Coding
Format profile                           : Main 10@L5.1@Main
HDR format                               : Dolby Vision, Version 1.0, dvhe.08.06, BL+RPU, Blu-ray compatible / SMPTE ST 2086, HDR10 compatible
Codec ID                                 : V_MPEGH/ISO/HEVC
Duration                                 : 2 h 35 min
Bit rate                                 : 15.9 Mb/s
Width                                    : 3 840 pixels
Height                                   : 1 608 pixels
Display aspect ratio                     : 2.40:1
Frame rate mode                          : Constant
Frame rate                               : 23.976 (24000/1001) FPS
Color space                              : YUV
Chroma subsampling                       : 4:2:0 (Type 2)
Bit depth                                : 10 bits
Bits/(Pixel*Frame)                       : 0.107
Stream size                              : 17.2 GiB (95%)
Writing library                          : x265 unknown:[Linux][GCC 9.3.0][64 bit] 10bit
Encoding settings                        : cpuid=1111039 / frame-threads=5 / numa-pools=32 / wpp / no-pmode / no-pme / no-psnr / no-ssim / log-level=2 / input-csp=1 / input-res=3840x1608 / interlace=0 / total-frames=0 / level-idc=51 / high-tier=1 / uhd-bd=0 / ref=6 / no-allow-non-conformance / repeat-headers / annexb / aud / hrd / info / hash=0 / no-temporal-layers / open-gop / min-keyint=23 / keyint=250 / gop-lookahead=0 / bframes=8 / b-adapt=2 / b-pyramid / bframe-bias=0 / rc-lookahead=25 / lookahead-slices=4 / scenecut=40 / hist-scenecut=0 / radl=0 / no-splice / no-intra-refresh / ctu=64 / min-cu-size=8 / no-rect / no-amp / max-tu-size=32 / tu-inter-depth=1 / tu-intra-depth=1 / limit-tu=0 / rdoq-level=1 / dynamic-rd=0.00 / no-ssim-rd / signhide / no-tskip / nr-intra=0 / nr-inter=0 / no-constrained-intra / strong-intra-smoothing / max-merge=3 / limit-refs=3 / no-limit-modes / me=3 / subme=3 / merange=57 / temporal-mvp / no-frame-dup / no-hme / weightp / no-weightb / no-analyze-src-pics / deblock=-3:-3 / no-sao / no-sao-non-deblock / rd=4 / selective-sao=0 / no-early-skip / rskip / no-fast-intra / no-tskip-fast / no-cu-lossless / no-b-intra / no-splitrd-skip / rdpenalty=0 / psy-rd=1.00 / psy-rdoq=3.00 / no-rd-refine / no-lossless / cbqpoffs=0 / crqpoffs=0 / rc=cbr / bitrate=16000 / qcomp=0.60 / qpstep=4 / stats-write=0 / stats-read=2 / cplxblur=20.0 / qblur=0.5 / vbv-maxrate=16000 / vbv-bufsize=32000 / vbv-init=0.9 / min-vbv-fullness=50.0 / max-vbv-fullness=80.0 / ipratio=1.40 / pbratio=1.30 / aq-mode=3 / aq-strength=1.00 / cutree / zone-count=0 / no-strict-cbr / qg-size=32 / no-rc-grain / qpmax=69 / qpmin=0 / no-const-vbv / sar=1 / overscan=0 / videoformat=5 / range=0 / colorprim=9 / transfer=16 / colormatrix=9 / chromaloc=1 / chromaloc-top=2 / chromaloc-bottom=2 / display-window=0 / master-display=G(13250,34500)B(7500,3000)R(34000,16000)WP(15635,16450)L(40000000,050) / cll=787,239 / min-luma=0 / max-luma=1023 / log2-max-poc-lsb=8 / vui-timing-info / vui-hrd-info / slices=1 / no-opt-qp-pps / no-opt-ref-list-length-pps / no-multi-pass-opt-rps / scenecut-bias=0.05 / hist-threshold=0.03 / no-opt-cu-delta-qp / no-aq-motion / hdr10 / hdr10-opt / no-dhdr10-opt / no-idr-recovery-sei / analysis-reuse-level=0 / analysis-save-reuse-level=0 / analysis-load-reuse-level=0 / scale-factor=0 / refine-intra=0 / refine-inter=0 / refine-mv=1 / refine-ctu-distortion=0 / no-limit-sao / ctu-info=0 / no-lowpass-dct / refine-analysis-type=0 / copy-pic=1 / max-ausize-factor=1.0 / no-dynamic-refine / no-single-sei / no-hevc-aq / no-svt / no-field / qp-adaptation-range=1.00 / scenecut-aware-qp=0conformance-window-offsets / right=0 / bottom=0 / decoder-max-rate=0 / no-vbv-live-multi-pass
Language                                 : English
Default                                  : No
Forced                                   : No
Color range                              : Limited
Color primaries                          : BT.2020
Transfer characteristics                 : PQ
Matrix coefficients                      : BT.2020 non-constant
Mastering display color primaries        : Display P3
Mastering display luminance              : min: 0.0050 cd/m2, max: 4000 cd/m2
Maximum Content Light Level              : 787 cd/m2
Maximum Frame-Average Light Level        : 239 cd/m2

Audio
ID                                       : 2
Format                                   : E-AC-3 JOC
Format/Info                              : Enhanced AC-3 with Joint Object Coding
Commercial name                          : Dolby Digital Plus with Dolby Atmos
Codec ID                                 : A_EAC3
Duration                                 : 2 h 35 min
Bit rate mode                            : Constant
Bit rate                                 : 768 kb/s
Channel(s)                               : 6 channels
Channel layout                           : L R C LFE Ls Rs
Sampling rate                            : 48.0 kHz
Frame rate                               : 31.250 FPS (1536 SPF)
Bit depth                                : 32 bits
Compression mode                         : Lossy
Stream size                              : 854 MiB (5%)
Language                                 : English
Service kind                             : Complete Main
Default                                  : Yes
Forced                                   : No
Complexity index                         : 16
Number of dynamic objects                : 15
Bed channel count                        : 1 channel
Bed channel configuration                : LFE

Perhaps someone with more knowledge on this topic could figure out which difference might be causing the issue

1 Like

I have the same exact problems. I’m on macOS 14.2.1 and Infuse 7.6.5.
The problem has been occurring throughout Infuse 7 and it has never gone away completely despite patches. Now, in the latest 2 or 3 versions the problem has gotten considerably worse.
Because of the stuttering, the unreliability of the pause button and the bad video/audio sync, there seems to be a problem of bad optimisation or unused resources. My MacBook Pro M1 Pro is perfectly capable of playing 4K HDR videos.
I use Infuse instead of mpv or IINA because it seems to have trustworthy developers, good color fidelity, user interface, is native to Apple platforms, etc… but I’m a Pro user and it’s getting to the point where you want to change app because it’s stuttering every 15 seconds.
Thank you

1 Like

I am also having issues with DV playback on macOS over SMB.

Every 10-20 minutes the audio and video will lose sync for about 10 seconds.
PiP usually doesn’t show video after return to fullscreen.
Skipping/resuming causes sync issues.

This has been going on for many months and is getting frustrating.

1 Like

Issues still persist with the 7.7 update

The playback problems still persist on the latest 7.7.3 (7.7.4799) version of Infuse. The most infuriating is the audio de-sync issue which happens every 15-25 minutes for me. Unfortunately the macOS client seems to be very low priority for the dev team.

I’m experiencing this as well. It’s pretty frustrating, especially since Infuse works so well with pretty much everything else.

Unfortunately, it seems to have gotten worse. I watched a movie (Infuse 7.7.5 (7.7.4827), streaming from Plex) last night and I encountered new issues:

  1. Whenever I paused the movie, I could not get it to resume. It either got stuck not doing anything or played ~5 frames in a infinite loop. I had to close the movie and reopen it again.
  2. At one point in the movie I was getting random flashes of black screen for a couple of frames. It happened very 5-10 seconds, but went away eventually. Probably got fixed with the closing I did for the issue above. I won’t bother to investigate this any further.

The file media info in case someone from Infuse ever opens this thread:

General
Unique ID                                : 114176238455937917208236289625634199854 (0x55E58B2D2B5747F42617F9B23569592E)
Complete name                            : The Idea of You (2024) {imdb-tt9466114} [AMZN][WEBDL-2160p][DV HDR10Plus][EAC3 Atmos 5.1][h265]-FLUX.mkv
Format                                   : Matroska
Format version                           : Version 4
File size                                : 12.6 GiB
Duration                                 : 1 h 57 min
Overall bit rate                         : 15.3 Mb/s
Frame rate                               : 24.000 FPS
Writing application                      : mkvmerge v79.0 ('Funeral Pyres') 64-bit
Writing library                          : libebml v1.4.4 + libmatroska v1.7.1

Video
ID                                       : 1
Format                                   : HEVC
Format/Info                              : High Efficiency Video Coding
Format profile                           : Main 10@L5@Main
HDR format                               : Dolby Vision, Version 1.0, dvhe.08.06, BL+RPU, HDR10 compatible / SMPTE ST 2094 App 4, Version 1, HDR10+ Profile B compatible
Codec ID                                 : V_MPEGH/ISO/HEVC
Duration                                 : 1 h 57 min
Bit rate                                 : 14.7 Mb/s
Width                                    : 3 840 pixels
Height                                   : 1 920 pixels
Display aspect ratio                     : 2.000
Frame rate mode                          : Constant
Frame rate                               : 24.000 FPS
Color space                              : YUV
Chroma subsampling                       : 4:2:0
Bit depth                                : 10 bits
Bits/(Pixel*Frame)                       : 0.083
Stream size                              : 12.1 GiB (96%)
Language                                 : English (US)
Default                                  : Yes
Forced                                   : No
Color range                              : Limited
Color primaries                          : BT.2020
Transfer characteristics                 : PQ
Matrix coefficients                      : BT.2020 non-constant
Mastering display color primaries        : Display P3
Mastering display luminance              : min: 0.0001 cd/m2, max: 1000 cd/m2
Maximum Content Light Level              : 1014 cd/m2
Maximum Frame-Average Light Level        : 196 cd/m2

Audio
ID                                       : 2
Format                                   : E-AC-3 JOC
Format/Info                              : Enhanced AC-3 with Joint Object Coding
Commercial name                          : Dolby Digital Plus with Dolby Atmos
Codec ID                                 : A_EAC3
Duration                                 : 1 h 57 min
Bit rate mode                            : Constant
Bit rate                                 : 576 kb/s
Channel(s)                               : 6 channels
Channel layout                           : L R C LFE Ls Rs
Sampling rate                            : 48.0 kHz
Frame rate                               : 31.250 FPS (1536 SPF)
Compression mode                         : Lossy
Stream size                              : 485 MiB (4%)
Language                                 : English (US)
Service kind                             : Complete Main
Default                                  : Yes
Forced                                   : No
Complexity index                         : 16
Number of dynamic objects                : 15
Bed channel count                        : 1 channel
Bed channel configuration                : LFE

The inability to resume after pausing ticked me off so much, that I just gave up and opened the movie in the Plex web app and watched it there. It worked pretty well, so I recommend you guys do the same thing. The Plex web app in Safari actually supports DV/HDR, but the audio transcodes to AAC, which shouldn’t be a problem for most people. The Plex macOS app does not currently support DV/HDR, otherwise I would be using that. Neither of them have Dolby Atmos support like Infuse, but at least you can watch the movie.

I gave up on Infuse.

Same issue here.

I can’t even resize Infuse’s windows without it completly flickering, and unable to play or pause.
This is ridiculous. DV file too.

Mediainfo report :

General
Unique ID                                : 113730746752938004041943292600292603994 (0x558FBEBD5C18857BC1EAE8487B35F85A)
Complete name                            : Tokyo Vice - S01E01 - The Test WEBDL-2160p.mkv
Format                                   : Matroska
Format version                           : Version 4
File size                                : 8.36 GiB
Duration                                 : 57 min 48 s
Overall bit rate                         : 20.7 Mb/s
Frame rate                               : 23.976 FPS
Encoded date                             : 2023-05-28 17:02:59 UTC
Writing application                      : mkvmerge v69.0.0 ('Day And Age') 64-bit
Writing library                          : libebml v1.4.2 + libmatroska v1.6.4

Video
ID                                       : 1
Format                                   : HEVC
Format/Info                              : High Efficiency Video Coding
Format profile                           : Main 10@L5.1@Main
HDR format                               : Dolby Vision, Version 1.0, Profile 8.1, dvhe.08.06, BL+RPU, no metadata compression, HDR10 compatible / SMPTE ST 2086, Version HDR10, HDR10 compatible
Codec ID                                 : V_MPEGH/ISO/HEVC
Duration                                 : 57 min 48 s
Bit rate                                 : 20.1 Mb/s
Width                                    : 3 840 pixels
Height                                   : 1 920 pixels
Display aspect ratio                     : 2.000
Frame rate mode                          : Constant
Frame rate                               : 23.976 (24000/1001) FPS
Color space                              : YUV
Chroma subsampling                       : 4:2:0 (Type 0)
Bit depth                                : 10 bits
Bits/(Pixel*Frame)                       : 0.113
Stream size                              : 8.10 GiB (97%)
Writing library                          : x265 3.5+1-f0c1022b6:[Linux][GCC 10.2.1][64 bit] 10bit
Encoding settings                        : cpuid=1111039 / frame-threads=5 / wpp / no-pmode / no-pme / psnr / ssim / log-level=2 / input-csp=1 / input-res=3840x1920 / interlace=0 / total-frames=0 / level-idc=0 / high-tier=0 / uhd-bd=0 / ref=3 / no-allow-non-conformance / repeat-headers / annexb / aud / no-eob / no-eos / hrd / info / hash=0 / no-temporal-layers / no-open-gop / min-keyint=96 / keyint=96 / gop-lookahead=0 / bframes=4 / b-adapt=2 / b-pyramid / bframe-bias=0 / rc-lookahead=96 / lookahead-slices=8 / scenecut=40 / no-hist-scenecut / radl=0 / no-splice / no-intra-refresh / ctu=64 / min-cu-size=8 / no-rect / no-amp / max-tu-size=32 / tu-inter-depth=1 / tu-intra-depth=1 / limit-tu=0 / rdoq-level=0 / dynamic-rd=0.00 / no-ssim-rd / signhide / no-tskip / nr-intra=0 / nr-inter=0 / no-constrained-intra / strong-intra-smoothing / max-merge=3 / limit-refs=1 / no-limit-modes / me=1 / subme=2 / merange=57 / temporal-mvp / no-frame-dup / no-hme / weightp / weightb / no-analyze-src-pics / deblock=0:0 / no-sao / no-sao-non-deblock / rd=3 / selective-sao=0 / early-skip / rskip / no-fast-intra / no-tskip-fast / no-cu-lossless / b-intra / no-splitrd-skip / rdpenalty=0 / psy-rd=2.00 / psy-rdoq=0.00 / no-rd-refine / no-lossless / cbqpoffs=0 / crqpoffs=0 / rc=crf / crf=10.0 / qcomp=0.60 / qpstep=4 / stats-write=0 / stats-read=0 / vbv-maxrate=21900 / vbv-bufsize=40000 / vbv-init=0.9 / min-vbv-fullness=50.0 / max-vbv-fullness=80.0 / crf-max=0.0 / crf-min=0.0 / ipratio=1.40 / pbratio=1.30 / aq-mode=2 / aq-strength=1.00 / cutree / zone-count=0 / no-strict-cbr / qg-size=32 / no-rc-grain / qpmax=69 / qpmin=0 / no-const-vbv / sar=1 / overscan=0 / videoformat=5 / range=0 / colorprim=9 / transfer=16 / colormatrix=9 / chromaloc=1 / chromaloc-top=0 / chromaloc-bottom=0 / display-window=0 / master-display=G(8500,39850)B(6550,2300)R(35400,14600)WP(15635,16450)L(10000000,1) / cll=424,115 / min-luma=0 / max-luma=1023 / log2-max-poc-lsb=8 / vui-timing-info / vui-hrd-info / slices=1 / no-opt-qp-pps / no-opt-ref-list-length-pps / no-multi-pass-opt-rps / scenecut-bias=0.05 / hist-threshold=0.03 / no-opt-cu-delta-qp / no-aq-motion / hdr10 / hdr10-opt / no-dhdr10-opt / no-idr-recovery-sei / analysis-reuse-level=0 / analysis-save-reuse-level=0 / analysis-load-reuse-level=0 / scale-factor=0 / refine-intra=0 / refine-inter=0 / refine-mv=1 / refine-ctu-distortion=0 / no-limit-sao / ctu-info=0 / no-lowpass-dct / refine-analysis-type=0 / copy-pic=1 / max-ausize-factor=1.0 / no-dynamic-refine / no-single-sei / no-hevc-aq / no-svt / no-field / qp-adaptation-range=1.00 / scenecut-aware-qp=0conformance-window-offsets / right=0 / bottom=0 / decoder-max-rate=0 / no-vbv-live-multi-pass
Default                                  : Yes
Forced                                   : No
Color range                              : Limited
Color primaries                          : BT.2020
Transfer characteristics                 : PQ
Matrix coefficients                      : BT.2020 non-constant
Mastering display color primaries        : BT.2020
Mastering display luminance              : min: 0.0001 cd/m2, max: 1000 cd/m2
Maximum Content Light Level              : 424 cd/m2
Maximum Frame-Average Light Level        : 115 cd/m2

Audio
ID                                       : 2
Format                                   : E-AC-3 JOC
Format/Info                              : Enhanced AC-3 with Joint Object Coding
Commercial name                          : Dolby Digital Plus with Dolby Atmos
Codec ID                                 : A_EAC3
Duration                                 : 57 min 48 s
Bit rate mode                            : Constant
Bit rate                                 : 640 kb/s
Channel(s)                               : 6 channels
Channel layout                           : L R C LFE Ls Rs
Sampling rate                            : 48.0 kHz
Frame rate                               : 31.250 FPS (1536 SPF)
Compression mode                         : Lossy
Stream size                              : 265 MiB (3%)
Language                                 : English
Service kind                             : Complete Main
Default                                  : Yes
Forced                                   : No
Complexity index                         : 16
Number of dynamic objects                : 15
Bed channel count                        : 1 channel
Bed channel configuration                : LFE
Dialog Normalization                     : -25 dB
compr                                    : -0.28 dB
dmixmod                                  : Lo/Ro
ltrtcmixlev                              : -3.0 dB
ltrtsurmixlev                            : -3.0 dB
lorocmixlev                              : -3.0 dB
lorosurmixlev                            : -3.0 dB
dialnorm_Average                         : -25 dB
dialnorm_Minimum                         : -25 dB
dialnorm_Maximum                         : -25 dB

Text
ID                                       : 3
Format                                   : UTF-8
Codec ID                                 : S_TEXT/UTF8
Codec ID/Info                            : UTF-8 Plain Text
Duration                                 : 49 min 46 s
Bit rate                                 : 21 b/s
Frame rate                               : 0.094 FPS
Count of elements                        : 282
Stream size                              : 7.70 KiB (0%)
Language                                 : English
Default                                  : No
Forced                                   : No