Lates Infuse - Still no Dolby Vision & no HDR10 fallback with some MKVs

Hi FireCore team,
I got some MKVs that seem to be Profile 8 Dolby Vision 1.0 with fallback to HDR10.

2 MKVs refuse to trigger DV in my Apple TV 2022 + Sony X95K.
Yet another MKV I have with Profile 8 does trigger DV without any problems.
Dolby Vision is set to Auto in the Infuse App. I have Infuse version 7.5.8.
it does not matter if I mess around with the Dolby Vision settings in the Infuse app.
These 2 MKVs always drop to HDR10 no matter what.
Apple TV is set to match frames and dynamic range.
The Sony X95K TV shows HDR (HDR 10) when these 2 files are being played…

On my Samsung QN90B with a similar setup, I dont see that the TV plays HDR10. Shows only HDR.
This TV support HDR10+, HDR10. I see the HDR10+ logo when playing Apple TV content and some test files I have. Pretty weird stuff here…

Any ideas? I pasted below mediainfo output of the files if this helps. I removed the movies names…

This movie triggers DV without any issues:
General
Unique ID :
Complete name :
Format : Matroska
Format version : Version 4
File size : 62.0 GiB
Duration : 2 h 21 min
Overall bit rate mode : Variable
Overall bit rate : 62.6 Mb/s
Frame rate : 23.976 FPS
Movie name :
Encoded date : 2023-05-15 14:13:17 UTC
Writing application : mkvmerge v75.0.0 (‘Goliath’) 64-bit
Writing library : libebml v1.4.4 + libmatroska v1.7.1
Cover : Yes
Attachments : cover.jpg

Video
ID : 1
Format : HEVC
Format/Info : High Efficiency Video Coding
Format profile : Main 10@L5.1@High
HDR format : Dolby Vision, Version 1.0, dvhe.08.06, BL+RPU, HDR10 compatible / SMPTE ST 2086, HDR10 compatible
Codec ID : V_MPEGH/ISO/HEVC
Duration : 2 h 21 min
Bit rate : 46.1 Mb/s
Width : 3 840 pixels
Height : 2 160 pixels
Display aspect ratio : 16:9
Frame rate mode : Constant
Frame rate : 23.976 (24000/1001) FPS
Color space : YUV
Chroma subsampling : 4:2:0 (Type 2)
Bit depth : 10 bits
Bits/(Pixel*Frame) : 0.232
Stream size : 45.7 GiB (74%)
Title :
Language : English
Default : Yes
Forced : No
Color range : Limited
Color primaries : BT.2020
Transfer characteristics : PQ
Matrix coefficients : BT.2020 non-constant
Mastering display color primaries : Display P3
Mastering display luminance : min: 0.0001 cd/m2, max: 1000 cd/m2
Maximum Content Light Level : 724 cd/m2
Maximum Frame-Average Light Level : 647 cd/m2

These two refuse to trigger DV no matter what:

– File #1:

General
Unique ID :
Complete name :
Format : Matroska
Format version : Version 4
File size : 91.8 GiB
Duration : 2 h 4 min
Overall bit rate mode : Variable
Overall bit rate : 105 Mb/s
Frame rate : 23.976 FPS
Movie name :
Encoded date : 2021-10-15 18:11:30 UTC
Writing application : mkvmerge v60.0.0 (‘Are We Copies?’) 64-bit
Writing library : libebml v1.4.2 + libmatroska v1.6.4
Cover : Yes
Attachments : Cover.jpg
IMDB :
TMDB :

Video
ID : 1
Format : HEVC
Format/Info : High Efficiency Video Coding
Format profile : Main 10@L5.1@High
HDR format : Dolby Vision, Version 1.0, dvhe.08.06, BL+RPU, HDR10 compatible / SMPTE ST 2086, HDR10 compatible
Codec ID : V_MPEGH/ISO/HEVC
Duration : 2 h 4 min
Bit rate : 47.8 Mb/s
Width : 3 840 pixels
Height : 2 160 pixels
Display aspect ratio : 16:9
Frame rate mode : Constant
Frame rate : 23.976 (24000/1001) FPS
Color space : YUV
Chroma subsampling : 4:2:0 (Type 2)
Bit depth : 10 bits
Bits/(Pixel*Frame) : 0.241
Stream size : 41.7 GiB (45%)
Title :
Writing library : ATEME Titan File 3.9.0 (4.9.0.0)
Language : English
Default : Yes
Forced : No
Color range : Limited
Color primaries : BT.2020
Transfer characteristics : PQ
Matrix coefficients : BT.2020 non-constant
Mastering display color primaries : BT.2020
Mastering display luminance : min: 0.0001 cd/m2, max: 1000 cd/m2

– File #2

General
Unique ID :
Complete name :
Format : Matroska
Format version : Version 4
File size : 63.7 GiB
Duration : 2 h 16 min
Overall bit rate mode : Variable
Overall bit rate : 67.0 Mb/s
Frame rate : 23.976 FPS
Movie name :
Encoded date : 2021-11-29 16:20:32 UTC
Writing application : mkvmerge v62.0.0 (‘Apollo’) 64-bit
Writing library : libebml v1.4.2 + libmatroska v1.6.4
IMDB :
TMDB :

Video
ID : 1
Format : HEVC
Format/Info : High Efficiency Video Coding
Format profile : Main 10@L5.1@High
HDR format : Dolby Vision, Version 1.0, dvhe.08.06, BL+RPU, HDR10 compatible / SMPTE ST 2086, HDR10 compatible
Codec ID : V_MPEGH/ISO/HEVC
Duration : 2 h 16 min
Bit rate : 44.8 Mb/s
Width : 3 840 pixels
Height : 2 160 pixels
Display aspect ratio : 16:9
Frame rate mode : Constant
Frame rate : 23.976 (23976/1000) FPS
Original frame rate : 23.976 (24000/1001) FPS
Color space : YUV
Chroma subsampling : 4:2:0 (Type 2)
Bit depth : 10 bits
Bits/(Pixel*Frame) : 0.225
Stream size : 42.6 GiB (67%)
Title :
Writing library : ATEME Titan File 3.9.0 (4.9.0.0)
Language : English
Default : Yes
Forced : No
Color range : Limited
Color primaries : BT.2020
Transfer characteristics : PQ
Matrix coefficients : BT.2020 non-constant
Mastering display color primaries : BT.2020
Mastering display luminance : min: 0.0001 cd/m2, max: 1000 cd/m2

3 posts were merged into an existing topic: Dolby Vision Profile 7 & 8 support (.ts/.mkv files)