Infuse 7 mac lag and micro freeze

I’d test several videos. This happened especially when the Infuse continued playing the second video after watching the first one. The CPU usage continuously really high, and my laptop temperature will surge to 70°C, which caused the fan to keep spinning.

I’m not sure why this happened and before this never happened on the beta test.

Screen Shot 2021-05-12 at 1.36.57 PM

Media info:
filesize: 1.66GB 1080p video

Input #0, matroska,webm, from ‘/Volumes/GoogleDrive/我的雲端硬碟/影片/韓劇/金秘書為何那樣/第一季/金秘書為何那樣.S01E05.mkv’:
Metadata:
title : 金秘书为何那样 S01E05
COMPATIBLE_BRANDS: isomiso2dashiso6piff
MAJOR_BRAND : iso2
MINOR_VERSION : 0
ENCODER : Lavf58.12.100
Duration: 01:04:23.07, start: 0.000000, bitrate: 3445 kb/s
Stream #0:0: Video: h264 (Main), yuv420p(progressive), 1920x1080 [SAR 1:1 DAR 16:9], 23.98 fps, 23.98 tbr, 1k tbn, 47.95 tbc (default)
Metadata:
HANDLER_NAME : Video Media Handler
ENCODER : AVC Coding
DURATION : 01:04:22.651000000
Stream #0:1(ko): Audio: eac3, 48000 Hz, 2 channels, fltp (default)
Metadata:
title : 韩文 [原始] [2.0]
HANDLER_NAME : Audio Media Handler
DURATION : 01:04:23.072000000
Stream #0:2(zh-Hans): Subtitle: subrip
Metadata:
title : 简体中文
DURATION : 01:04:21.691000000
Stream #0:3(en): Subtitle: subrip
Metadata:
title : 英语
DURATION : 01:04:14.767000000
Stream #0:4(ar): Subtitle: subrip
Metadata:
title : 阿拉伯语
DURATION : 01:04:21.691000000
Stream #0:5(th): Subtitle: subrip
Metadata:
title : 泰语
DURATION : 01:04:21.691000000
Stream #0:6(zh-Hant): Subtitle: subrip
Metadata:
title : 繁体中文
DURATION : 01:04:21.691000000
Stream #0:7(id): Subtitle: subrip
Metadata:
title : 印度尼西亚语
DURATION : 01:04:21.732000000
Stream #0:8(tr): Subtitle: subrip
Metadata:
title : 土耳其文
DURATION : 01:04:21.691000000

A post was merged into an existing topic: Extremely high CPU usage when playing back video