Fail to resume mp4 DV

Hi,

Facing issue when i resume mp4 DV the movie wont resume only loading, I tried with other file but same issue.

ATV 4K 2Gen Tvos16

File info,

Format : MPEG-4
Format profile : Base Media
File size : 24.8 GiB
Duration : 2 h 21 min
Overall bit rate mode : Variable
Overall bit rate : 25.2 Mb/s

Video
ID : 1
Format : HEVC
Format/Info : High Efficiency Video Coding
Format profile : Main 10@L5@High
Dolby Vision : 1.0, dvhe.05.06, BL+RPU
Codec ID : dvhe
Codec ID/Info : High Efficiency Video Coding with Dolby Vision
Duration : 2 h 21 min
Bit rate : 24.4 Mb/s
Width : 3 840 pixels
Height : 1 616 pixels
Original height : 1 610 pixels
Display aspect ratio : 2.40:1
Original display aspect ratio : 2.40:1
Frame rate mode : Constant
Frame rate : 23.976 (24000/1001) FPS
Color space : YUV
Chroma subsampling : 4:2:0
Bit depth : 10 bits
Bits/(Pixel*Frame) : 0.164
Stream size : 24.1 GiB (97%)
Default : Yes
Alternate group : 1
Encoded date : UTC 2021-03-12 07:16:41
Tagged date : UTC 2021-03-12 07:33:12
Codec configuration box : hvcC+dvcC

Audio
ID : 2
Format : E-AC-3 JOC
Format/Info : Enhanced AC-3 with Joint Object Coding
Commercial name : Dolby Digital Plus with Dolby Atmos
Codec ID : ec-3
Duration : 2 h 21 min
Bit rate mode : Constant
Bit rate : 768 kb/s
Channel(s) : 6 channels
Channel layout : L R C LFE Ls Rs
Sampling rate : 48.0 kHz
Frame rate : 31.250 FPS (1536 SPF)
Bit depth : 16 bits
Compression mode : Lossy
Stream size : 775 MiB (3%)
Language : English
Service kind : Complete Main
Default : Yes
Alternate group : 2
Encoded date : UTC 2021-03-12 07:16:41
Tagged date : UTC 2021-03-12 07:33:12
Complexity index : Not present / 16
Number of dynamic objects : 15
Bed channel count : 1 channel
Bed channel configuration : LFE

First, what version number of Infuse?

What are you streaming from? NAS, computer, cloud, local, remote?

When you say resume, do you mean after pausing for a couple of seconds or are you talking about stopping the video and later coming back and resuming from a specific time with the play button?

Does it just get the spinning wheel when you resume or does it produce an error? If just the spinning wheel, how long are you waiting to determine an error?

Hi,

I checked now no issue with resume, i had this issue 2 weeks ago but now all good.

6 posts were split to a new topic: Error on Resume Playback on ATV

This topic was automatically closed 30 days after the last reply. New replies are no longer allowed.