Choppy playback of 720p video

I just encoded this test movie in Handbrake using the Apple TV 2 preset (defaults) but it is a little choppy during playback whereas iTunes HD content is smooth. Can anyone work out what the problem is?

> General

>

Complete name                            : /Volumes/Home/Users/rds/Movies/Test.m4v

>

Format                                   : MPEG-4

>

Format profile                           : Base Media / Version 2

>

Codec ID                                 : mp42

>

File size                                : 1.69 GiB

>

Duration                                 : 1h 44mn

>

Overall bit rate mode                    : Variable

>

Overall bit rate                         : 2 308 Kbps

>

Encoded date                             : UTC 2011-12-27 17:35:27

>

Tagged date                              : UTC 2011-12-27 18:17:21

>

Writing application                      : HandBrake 0.9.5 2011010300

>

 

>

Video

>

ID                                       : 1

>

Format                                   : AVC

>

Format/Info                              : Advanced Video Codec

>

Format profile                           : High@L3.1

>

Format settings, CABAC                   : Yes

>

Format settings, ReFrames                : 4 frames

>

Codec ID                                 : avc1

>

Codec ID/Info                            : Advanced Video Coding

>

Duration                                 : 1h 44mn

>

Bit rate mode                            : Variable

>

Bit rate                                 : 2 138 Kbps

>

Width                                    : 1 280 pixels

>

Height                                   : 544 pixels

>

Display aspect ratio                     : 2.35:1

>

Frame rate mode                          : Variable

>

Frame rate                               : 29.970 fps

>

Minimum frame rate                       : 14.990 fps

>

Maximum frame rate                       : 30.000 fps

>

Color space                              : YUV

>

Chroma subsampling                       : 4:2:0

>

Bit depth                                : 8 bits

>

Scan type                                : Progressive

>

Bits/(Pixel*Frame)                       : 0.102

>

Stream size                              : 1.57 GiB (93%)

>

Writing library                          : x264 core 112

>

Encoding settings                        : cabac=1 / ref=3 / deblock=1:0:0 / analyse=0x3:0x113 / me=hex / subme=7 / psy=1 / psy_rd=1.00:0.00 / mixed_ref=1 / me_range=16 / chroma_me=1 / trellis=1 / 8x8dct=1 / cqm=0 / deadzone=21,11 / fast_pskip=1 / chroma_qp_offset=-2 / threads=12 / sliced_threads=0 / nr=0 / decimate=1 / interlaced=0 / constrained_intra=0 / bframes=3 / b_pyramid=2 / b_adapt=1 / b_bias=0 / direct=1 / weightb=1 / open_gop=0 / weightp=2 / keyint=300 / keyint_min=29 / scenecut=40 / intra_refresh=0 / rc_lookahead=40 / rc=crf / mbtree=1 / crf=20.0 / qcomp=0.60 / qpmin=3 / qpmax=51 / qpstep=4 / ip_ratio=1.40 / aq=1:1.00

>

Encoded date                             : UTC 2011-12-27 17:35:27

>

Tagged date                              : UTC 2011-12-27 18:17:21

>

Color primaries                          : BT.709-5, BT.1361, IEC 61966-2-4, SMPTE RP177

>

Transfer characteristics                 : BT.709-5, BT.1361

>

Matrix coefficients                      : BT.709-5, BT.1361, IEC 61966-2-4 709, SMPTE RP177

>

 

>

Audio

>

ID                                       : 2

>

Format                                   : AAC

>

Format/Info                              : Advanced Audio Codec

>

Format profile                           : LC

>

Codec ID                                 : 40

>

Duration                                 : 1h 44mn

>

Bit rate mode                            : Variable

>

Bit rate                                 : 164 Kbps

>

Maximum bit rate                         : 237 Kbps

>

Channel(s)                               : 2 channels

>

Channel positions                        : Front: L R

>

Sampling rate                            : 48.0 KHz

>

Compression mode                         : Lossy

>

Stream size                              : 123 MiB (7%)

>

Language                                 : English

>

Encoded date                             : UTC 2011-12-27 17:35:27

>

Tagged date                              : UTC 2011-12-27 18:17:21

>

AFAIK it’s just something which “is” with the current software, something about the hardware decoding not being used (or at least not correctly) for 720p. Happens on everyone’s I believe.

since this is a medium bitrate film and h264 your atv should have no issue…

what FW and is it over wireless? Try restarting lowtide and then playing…

I would try and lowering reference frames(B)

This video file is not 720p btw. (1280x720) it is (1280x544) and since this is a conversion make sure you are converting down (bluray at 1080p to 720p) and not up (dvd at 480p to 720p)

as this can occasionally cause issues…