Black Screen dv8 on MacBook Air. Works on ATV

Infuse Version: 7.6.1
Device: MacBook Air M2
OS: macOS Ventura 13.4

  1. Black screen while viewing dv8 (BL+RPU) mkv on MacBook Air
  2. There is audio coming and subtitles as well
  3. The FEL layer from dv7 has been merged with BL and converted to dv8.
  4. dv7 video runs OK on MacBook - assumption is that it using HDR and ignoring DV.
  5. dv8 video is running OK on Apple TV 4K but black screen on MacBook Air
  6. After disabling DV in playback setting → the dv8 video is running on MacBook Air

MediaInfo for dv8 BL+RPU (FEL is merged with BL)

General
Unique ID                                : 93568479694999935121594812078061634919 (0x4664A2397A459414B29283C32C9DC567)
Complete name                            : Part.One.2023.2160p.UHD.BluRay.REMUX.DV.HDR.HEVC.Atmos-TPW.mkv
Format                                   : Matroska
Format version                           : Version 4
File size                                : 69.1 GiB
Duration                                 : 2 h 43 min
Overall bit rate mode                    : Variable
Overall bit rate                         : 60.6 Mb/s
Frame rate                               : 23.976 FPS
Movie name                               : Part One (2023)
Encoded date                             : 2023-10-26 19:51:44 UTC
Writing application                      : mkvmerge v79.0 ('Funeral Pyres') 64-bit
Writing library                          : libebml v1.4.4 + libmatroska v1.7.1
IMDB                                     : tt960
TMDB                                     : movie/575
 
Video
ID                                       : 1
Format                                   : HEVC
Format/Info                              : High Efficiency Video Coding
Format profile                           : Main 10@L5.1@High
HDR format                               : Dolby Vision, Version 1.0, dvhe.08.06, BL+RPU, HDR10 compatible / SMPTE ST 2086, HDR10 compatible
Codec ID                                 : V_MPEGH/ISO/HEVC
Duration                                 : 2 h 43 min
Bit rate                                 : 56.4 Mb/s
Width                                    : 3 840 pixels
Height                                   : 2 160 pixels
Display aspect ratio                     : 16:9
Frame rate mode                          : Constant
Frame rate                               : 23.976 (24000/1001) FPS
Color space                              : YUV
Chroma subsampling                       : 4:2:0 (Type 2)
Bit depth                                : 10 bits
Bits/(Pixel*Frame)                       : 0.283
Stream size                              : 64.3 GiB (93%)
Default                                  : Yes
Forced                                   : No
Color range                              : Limited
Color primaries                          : BT.2020
Transfer characteristics                 : PQ
Matrix coefficients                      : BT.2020 non-constant
Mastering display color primaries        : Display P3
Mastering display luminance              : min: 0.0050 cd/m2, max: 4000 cd/m2
Maximum Content Light Level              : 997 cd/m2
Maximum Frame-Average Light Level        : 382 cd/m2

MediaInfo for dv7 (BL + EL + RPU)

General
Unique ID                                : 35382089423185208493873348583086975770 (0x1A9E57B174AC57A75635158FEA916B1A)
Complete name                            : Part.One.2023.2160p.UHD.BluRay.REMUX.DV.HDR.HEVC.Atmos-TTN.mkv
Format                                   : Matroska
Format version                           : Version 4
File size                                : 69.5 GiB
Duration                                 : 2 h 43 min
Overall bit rate mode                    : Variable
Overall bit rate                         : 60.9 Mb/s
Frame rate                               : 23.976 FPS
Movie name                               : Part One (2023)
Encoded date                             : 2023-10-26 00:28:23 UTC
Writing application                      : mkvmerge v79.0 ('Funeral Pyres') 64-bit
Writing library                          : libebml v1.4.4 + libmatroska v1.7.1
IMDB                                     : tt9603
TMDB                                     : movie/575

Video
ID                                       : 1
ID in the original source medium         : 4113 (0x1011)
Format                                   : HEVC
Format/Info                              : High Efficiency Video Coding
Format profile                           : Main 10@L5.1@High
HDR format                               : Dolby Vision, Version 1.0, dvhe.07.06, BL+EL+RPU, Blu-ray compatible / SMPTE ST 2086, HDR10 compatible
Codec ID                                 : V_MPEGH/ISO/HEVC
Duration                                 : 2 h 43 min
Bit rate                                 : 56.4 Mb/s
Width                                    : 3 840 pixels
Height                                   : 2 160 pixels
Display aspect ratio                     : 16:9
Frame rate mode                          : Constant
Frame rate                               : 23.976 (24000/1001) FPS
Color space                              : YUV
Chroma subsampling                       : 4:2:0 (Type 2)
Bit depth                                : 10 bits
Bits/(Pixel*Frame)                       : 0.283
Stream size                              : 64.3 GiB (93%)
Title                                    : MPEG-H HEVC Video / 3917 + 52434 kbps / 2160p / 23.976 fps / 16:9 / Main 10 @ Level 5.1 @ High / 10 bits / Dolby Vision + HDR10 / BT.2020
Language                                 : zxx
Default                                  : Yes
Forced                                   : No
Color range                              : Limited
Color primaries                          : BT.2020
Transfer characteristics                 : PQ
Matrix coefficients                      : BT.2020 non-constant
Mastering display color primaries        : Display P3
Mastering display luminance              : min: 0.0050 cd/m2, max: 4000 cd/m2
Maximum Content Light Level              : 997 cd/m2
Maximum Frame-Average Light Level        : 382 cd/m2
Original source medium                   : Blu-ray