Bad playback infuse 5

What I use:

Windows 10 x64
Mother Asus B85M-G R2.0
Procesador i3-4150
Ram 4GB 1600
RED 1,0 Gbps
SSD 120Gb + 2 HDD 3TB
Time Capsule 6th generation AC

I have stuttering in most of my files, most are blu-ray passed to mkv without encodings and stuttering is very visible, and it happens to freeze.
Those same files change the container to m4v (uncoded, only container change) and I can play with plex in direct playback without transcoding and look great without stuttering.

I have tested with the network cable connected to the Apple TV and WiFi AC that gives the Time Capsule.

Again I apologize for my poor translation.

Lo que uso
Windows 10 x64
Mother Asus B85M-G R2.0
Procesador i3-4150
Ram 4GB 1600
RED 1,0 Gbps
SSD 120Gb + 2 HDD 3TB
Time Capsule 6th generation AC

Tengo el tartamudeo en la mayoría de mis archivos, la mayoría son blu-ray pasadas a mkv sin codificaciones y el tartamudeo es muy visible, y pasa a congelarse.
Esos mismos archivos los cambio de contenedor a m4v (sin codificar, solo cambio de contenedor) y puedo reproducir con plex en reproducción directa sin transcodificacion y se ven genial sin tartamudeo.
He hecho las pruebas con el cable de red conectado a la Apple tv y por WiFi AC que da la Time Capsule.

1
Format : AVC
Format/Info : Advanced Video Codec
Format profile : High@L4.1
Format settings, CABAC : Yes
Format settings, ReFrames : 2 frames
Format settings, GOP : M=3, N=24
Codec ID : V_MPEG4/ISO/AVC
Duration : 2 h 58 min
Bit rate : 23.5 Mb/s
Width : 1 920 pixels
Height : 1 080 pixels
Display aspect ratio : 16:9
Frame rate mode : Variable
Frame rate : 23.976 (24000/1001) FPS
Color space : YUV
Chroma subsampling : 4:2:0
Bit depth : 8 bits
Scan type : Progressive
Bits/(Pixel*Frame) : 0.473
Stream size : 29.3 GiB (98%)
Language : English
Default : Yes
Forced : No

Audio
ID : 2
Format : AC-3
Format/Info : Audio Coding 3
Mode extension : CM (complete main)
Format settings, Endianness : Big
Codec ID : A_AC3
Duration : 2 h 58 min
Bit rate mode : Constant
Bit rate : 448 kb/s
Channel(s) : 6 channels
Channel positions : Front: L C R, Side: L R, LFE
Sampling rate : 48.0 kHz
Frame rate : 31.250 FPS (1536 spf)
Bit depth : 16 bits
Compression mode : Lossy
Delay relative to video : 23 ms
Stream size : 571 MiB (2%)
Title : Surround 5.1
Language : Spanish
Default : Yes
Forced : No

Text
ID : 3
Format : PGS
Muxing mode : zlib
Codec ID : S_HDMV/PGS
Codec ID/Info : Picture based subtitle format used on BDs/HD-DVDs
Duration : 2 h 44 min
Bit rate : 790 b/s
Count of elements : 162
Stream size : 952 KiB (0%)
Language : Spanish
Default : Yes
Forced : No